Dynamic Figure Drawing Hands and Feet (2010)

Dynamic Figure Drawing: Hands and Feet (2010)
English | Flv | 856×480 | Flash Video 2558 Kbps 24.000 fps | MP3 96.0 Kbps 22.05 khz | 101mn | 1.32 GB
Genre: Video Training
In this DVD, David Finch reveals his step-by-step process for drawing hands and feet. He starts with simple block shapes, and moves on to more complex shapes before showing how to place fingers and toes correctly. David discusses common mistakes and how to avoid them. He covers fingers and toes in detail, demonstrating how to draw them flat and in foreshortened perspective from multiple angles. He demonstrates some easy shortcuts and tricks, including use of negative space and dynamic folding between the fingers and thumb. Lastly, he draws completed hands and feet from multiple angles, covering the differences between male and female hands and subjects such as drawing claws, fingernail details and shoes. This constructive drawing process teaches you to draw convincing hands and feet without the need for tracing or using reference.
MediaInfo:

General
Complete name : DFI03_ch01.flv
Format : Flash Video
File size : 88.1 MiB
Duration : 6mn 34s
Overall bit rate : 1 874 Kbps
Encoded date : 2010-02-23 17:11:06
Tagged date : UTC 2010-02-23 18:59:56
canseektoend : No

Video
Format : VP6
Codec ID : 4
Duration : 6mn 34s
Bit rate : 2 558 Kbps
Width : 856 pixels
Height : 480 pixels
Display aspect ratio : 16:9
Frame rate mode : Constant
Frame rate : 24.000 fps
Bit depth : 8 bits
Bits/(Pixel*Frame) : 0.259
Stream size : 83.4 MiB (95%)

Audio
Format : MPEG Audio
Format version : Version 2
Format profile : Layer 3
Codec ID : 2
Codec ID/Hint : MP3
Duration : 6mn 34s
Bit rate mode : Constant
Bit rate : 96.0 Kbps
Channel(s) : 1 channel
Sampling rate : 22.05 KHz
Compression mode : Lossy
Stream size : 4.74 MiB (5%)
Writing library : LAME3.97 (beta)

Giá: 30.000 vnd
(Mang theo USB để chép file)

Leave a Reply

Your email address will not be published. Required fields are marked *