Infinite Skills – AutoCAD Civil 3D 2014 Training Video

Infinite Skills – AutoCAD Civil 3D 2014 Training Video
English | MP4 | 1280×720 | AVC 225 Kbps 15.000 fps | AAC 64.0 Kbps 44.1 khz | 9.75 hours | 1.46 GB
Genre: Video Training
In this Civil 3D 2014 training course from expert trainer Seth Cohen, you will learn how to use the tools and techniques available to you in this civil engineering design and documentation solution software. This tutorial is designed for beginners, and no previous experience with Civil 3D software is required.
After a quick tour around the interface to acquaint yourself with the different toolspaces, you jump right into applying those tools to a real project. Some of the topics that are covered in these lessons include; working with points, using survey databases, managing surfaces, creating alignments, managing assemblies, and corridor modelling. This video training also covers grading, pipe networks, quantity takeoffs, creating sheets, working with point clouds, and much more. Working files are included, allowing you to follow along with the author throughout the lessons.
Once you have completed this video based training for Autodesk AutoCAD Civil 3D 2014, you will have a comprehensive understanding of how to apply the tools in this software to real-world projects. You will be comfortable working within Civil 3D, and be able to work on your own projects with confidence!

01. Introduction
02. The Civil 3D Interface
03. Points
04. Using Survey Databases
05. Surfaces
06. Alignments
07. Sharing Civil 3D Data
08. Profiles
09. Assemblies And Subassemblies
10. Corridor Modelling
11. Grading in Civil 3D
12. Pipe Networks
13. Cross Section
14. Quantity Takeoff
15. Creating Sheets
16. Parcels
17. Pressure Pipe Networks
18. Point Clouds
19. Finale

MediaInfo:

General
Complete name : InfSkls_AutoCAD_Civil_3D_2014\0001.MP4
Format : MPEG-4
Format profile : Base Media / Version 2
Codec ID : mp42
File size : 4.15 MiB
Duration : 1mn 59s
Overall bit rate : 291 Kbps
Encoded date : UTC 2013-04-29 19:33:18
Tagged date : UTC 2013-04-29 18:33:19
Writing application : Sorenson Squeeze
Comment : Encoded by

Video
ID : 2
Format : AVC
Format/Info : Advanced Video Codec
Format profile : Main@L3.1
Format settings, CABAC : Yes
Format settings, ReFrames : 4 frames
Codec ID : avc1
Codec ID/Info : Advanced Video Coding
Duration : 1mn 59s
Bit rate mode : Variable
Bit rate : 225 Kbps
Width : 1 280 pixels
Height : 720 pixels
Display aspect ratio : 16:9
Frame rate mode : Constant
Frame rate : 15.000 fps
Color space : YUV
Chroma subsampling : 4:2:0
Bit depth : 8 bits
Scan type : Progressive
Bits/(Pixel*Frame) : 0.016
Stream size : 3.17 MiB (76%)
Writing library : x264 core 129
Encoding settings : cabac=1 / ref=3 / deblock=1:0:0 / analyse=0x1:0x111 / me=hex / subme=7 / psy=1 / psy_rd=1.00:0.00 / mixed_ref=1 / me_range=16 / chroma_me=1 / trellis=1 / 8x8dct=0 / cqm=0 / deadzone=21,11 / fast_pskip=1 / chroma_qp_offset=-2 / threads=24 / lookahead_threads=4 / sliced_threads=0 / nr=0 / decimate=1 / interlaced=0 / bluray_compat=0 / constrained_intra=0 / bframes=3 / b_pyramid=2 / b_adapt=1 / b_bias=0 / direct=1 / weightb=1 / open_gop=0 / weightp=2 / keyint=150 / keyint_min=15 / scenecut=50 / intra_refresh=0 / rc_lookahead=40 / rc=2pass / mbtree=1 / bitrate=225 / ratetol=100.0 / qcomp=0.60 / qpmin=0 / qpmax=69 / qpstep=4 / cplxblur=20.0 / qblur=0.5 / ip_ratio=1.40 / aq=1:1.00
Encoded date : UTC 2013-04-29 19:33:18
Tagged date : UTC 2013-04-29 19:33:18

Audio
ID : 1
Format : AAC
Format/Info : Advanced Audio Codec
Format profile : LC
Codec ID : 40
Duration : 1mn 59s
Bit rate mode : Constant
Bit rate : 64.0 Kbps
Channel(s) : 1 channel
Channel positions : Front: C
Sampling rate : 44.1 KHz
Compression mode : Lossy
Stream size : 935 KiB (22%)
Encoded date : UTC 2013-04-29 19:33:18
Tagged date : UTC 2013-04-29 19:33:18

Giá: 30.000 vnd
(Mang theo USB để chép file)

Leave a Reply

Your email address will not be published. Required fields are marked *