Infinite Skills – Learning To Use Final Cut Pro 7 Training Video

Infinite Skills – Learning To Use Final Cut Pro 7 Training Video
English | MP4 | 640×480 | AVC 407 Kbps 15.000 fps | AAC 128 Kbps 44.1 khz | 7.5 hours | 4.85 GB
Genre: Video Training
In this Apple Final Cut Pro 7 Tutorial Video, accomplished author and trainer Andy Anderson takes you through the ins and outs of the worlds most popular video editing software, Final Cut Pro 7. Over 7.5 hours long, and with 164 training videos.
In this video tutorial Andy Anderson breaks down the complexity of this powerful editing tool into simple, bite sized pieces that anyone can learn from. Covering the basics of FCP 7 right from organizing your projects and importing clips and media, to assembling, editing and finally exporting your finished product, Andy makes sure that you are fully able to understand and use Final Cut Pro 7. Included with this amazing tutorial is over 3.5 GB of work files on DVD, so you can work along with Andy, and practice on the exact clips and with the exact media that you will find in this training DVD.
By the end of this Apple Final Cut Pro 7 Tutorial video, you will be fully capable of creating and editing your simple or complex projects in Apple Final Cut Pro 7.

01. Final Cut Pro 7 Basics
02. Capturing Media
03. Importing / Loading Existing Media
04. Organizing a Final Cut Pro Project
05. Video Editing Basics
06. The Final Cut Pro Timeline
07. Beyond Basic Editing Techniques
08. Working With Audio
09. Transitions in Final Cut Pro
10. Creating Titles
11. Working With Filters And Color Correction
12. Compositing Tricks
13. The Final Product
14. About The Author

MediaInfo:

General
Complete name : Apple Final Cut Pro 7\0101.mp4
Format : MPEG-4
Format profile : Base Media / Version 2
Codec ID : mp42
File size : 9.03 MiB
Duration : 2mn 20s
Overall bit rate mode : Variable
Overall bit rate : 539 Kbps
Encoded date : UTC 2010-02-15 15:44:56
Tagged date : UTC 2010-02-15 15:48:03
Writing application : Sorenson Squeeze 5.0

Video
ID : 2
Format : AVC
Format/Info : Advanced Video Codec
Format profile : Main@L3.0
Format settings, CABAC : No
Format settings, ReFrames : 2 frames
Codec ID : avc1
Codec ID/Info : Advanced Video Coding
Duration : 2mn 20s
Bit rate mode : Variable
Bit rate : 407 Kbps
Width : 640 pixels
Height : 480 pixels
Display aspect ratio : 4:3
Frame rate mode : Constant
Frame rate : 15.000 fps
Color space : YUV
Chroma subsampling : 4:2:0
Bit depth : 8 bits
Scan type : Progressive
Bits/(Pixel*Frame) : 0.088
Stream size : 6.82 MiB (76%)
Encoded date : UTC 2010-02-15 15:44:56
Tagged date : UTC 2010-02-15 15:44:56
Color primaries : BT.601-6 525, BT.1358 525, BT.1700 NTSC, SMPTE 170M
Transfer characteristics : BT.709-5, BT.1361
Matrix coefficients : BT.601-6 525, BT.1358 525, BT.1700 NTSC, SMPTE 170M

Audio
ID : 1
Format : AAC
Format/Info : Advanced Audio Codec
Format profile : LC
Codec ID : 40
Duration : 2mn 20s
Bit rate mode : Variable
Bit rate : 128 Kbps
Channel(s) : 1 channel
Channel positions : Front: C
Sampling rate : 44.1 KHz
Compression mode : Lossy
Stream size : 2.14 MiB (24%)
Encoded date : UTC 2010-02-15 15:44:56
Tagged date : UTC 2010-02-15 15:44:56

Giá: 30.000 vnd
(Mang theo USB để chép file)

Leave a Reply

Your email address will not be published. Required fields are marked *