Infinite Skills – Microsoft Windows 7 Training Video

Infinite Skills – Microsoft Windows 7 Training Video
English | MP4 | 960×720 | AVC 233 Kbps 15.000 fps | AAC 128 Kbps 44.1 khz | 6.5 hours | 1.5 GB
Genre: Video Training
This Microsoft Windows 7 Tutorial Video is narrated by long time author and expert trainer Tony Northup. Covering over 7 hours this training video takes an in-depth look at Microsoft's latest operating system, Windows 7.
Starting with the basics of installation, Tony guides you through the setup, and use of the most important features of Windows 7. Tony covers topics such as the taskbar, notification area, creating and navigating folders, Internet Explorer 8, Media Player, and much more, making this a completely comprehensive look at the most exciting Microsoft operating system to date.
By the conclusion of this video based training course, you will be capable of installing, customizing and using this operating system with confidence, the self-paced nature of this tutorial allows users of all levels to quickly learn Windows 7 no matter what their prior experience.

01. Introduction
02. Upgrading to Windows 7
03. The Windows 7 Taskbar and User Interface
04. Windows Explorer
05. Using Media
06. Built-in Applications
07. System Settings
08. Networking
09. Security
10. Printing
11. Backing Up and Restoring Your Important Files
12. Browsing the Web
13. Troubleshooting
14. Systems Administration
15. Summary

MediaInfo:

General
Complete name :Infiniteskills – Microsoft Windows 7\0102.mp4
Format : MPEG-4
Format profile : Base Media / Version 2
Codec ID : mp42
File size : 27.8 MiB
Duration : 10mn 39s
Overall bit rate mode : Variable
Overall bit rate : 365 Kbps
Encoded date : UTC 2010-02-07 00:46:58
Tagged date : UTC 2010-02-07 01:10:30
Writing application : Sorenson Squeeze 5.0

Video
ID : 2
Format : AVC
Format/Info : Advanced Video Codec
Format profile : Main@L3.1
Format settings, CABAC : No
Format settings, ReFrames : 2 frames
Codec ID : avc1
Codec ID/Info : Advanced Video Coding
Duration : 10mn 39s
Bit rate mode : Variable
Bit rate : 233 Kbps
Width : 960 pixels
Height : 720 pixels
Display aspect ratio : 4:3
Frame rate mode : Constant
Frame rate : 15.000 fps
Color space : YUV
Chroma subsampling : 4:2:0
Bit depth : 8 bits
Scan type : Progressive
Bits/(Pixel*Frame) : 0.022
Stream size : 17.8 MiB (64%)
Encoded date : UTC 2010-02-07 00:46:58
Tagged date : UTC 2010-02-07 00:46:58
Color primaries : BT.709-5, BT.1361, IEC 61966-2-4, SMPTE RP177
Transfer characteristics : BT.709-5, BT.1361
Matrix coefficients : BT.709-5, BT.1361, IEC 61966-2-4 709, SMPTE RP177

Audio
ID : 1
Format : AAC
Format/Info : Advanced Audio Codec
Format profile : LC
Codec ID : 40
Duration : 10mn 39s
Bit rate mode : Variable
Bit rate : 128 Kbps
Channel(s) : 1 channel
Channel positions : Front: C
Sampling rate : 44.1 KHz
Compression mode : Lossy
Stream size : 9.76 MiB (35%)
Encoded date : UTC 2010-02-07 00:46:58
Tagged date : UTC 2010-02-07 00:46:58

Giá: 30.000 vnd
(Mang theo USB để chép file)

Leave a Reply

Your email address will not be published. Required fields are marked *