Photo Retouching in Adobe Photoshop with Meghan Farrell

Photo Retouching in Adobe Photoshop with Meghan Farrell
English | MOV | 960×540 | AVC 302 Kbps 10.000 fps | AAC 48.0 Kbps 44.1 khz | 158 minutes | 542 MB
Genre: Video Training
With this DVD you will learn the step-by-step process of using Adobe Photoshop retouching techniques to transform and prepare images for production level commercial photography. Meghan Farrell will walk you through the steps of retouching a fashion shoot as a basis for learning the primary skill sets to make skin and hair look flawless without looking artificial. You will learn how to retouch and maintain natural skin, hair and hands and reshape the body. You ll be introduced to indispensable methods of using adjustment layers, layer masks and color correction. The techniques demonstrated in this DVD will help you retouch like a professional, whether working on your own images or for those of a client. The cutting edge techniques demonstrated in this DVD will help you stand out when seeking work in this fast-paced industry.

Topics:
Creating Natural Looking Skin
Color Correcting
Hair Clean up and Restructuring
Using Adjustment Layers and Masks
Removing Objects from the Background
Body Morphology
Reshaping with Lighting Effects
Changing the Color of Selected Areas

Chapters:
Setting Preferences
Color Correcting
Skin Retouching
Keeping Skin Natural
Eyes and Surrounding Area
Hair and More
Reviewing Skin Techniques
Skin Folds
Removing Objects from the Background
Hands and Hair Review
Body Morphing
Intensifying Objects and Shapes
Changing Colors of Selected Areas

MediaInfo:

General
Complete name : 00. Intro.mov
Format : MPEG-4
Format profile : QuickTime
Codec ID : qt
File size : 1.07 MiB
Duration : 22s 600ms
Overall bit rate : 396 Kbps
Encoded date : UTC 2009-09-14 20:27:37
Tagged date : UTC 2009-09-14 20:27:40
Writing library : Apple QuickTime

Video
ID : 1
Format : AVC
Format/Info : Advanced Video Codec
Format profile : Main@L3.1
Format settings, CABAC : No
Format settings, ReFrames : 2 frames
Codec ID : avc1
Codec ID/Info : Advanced Video Coding
Duration : 22s 600ms
Bit rate : 302 Kbps
Width : 960 pixels
Height : 540 pixels
Display aspect ratio : 16:9
Frame rate mode : Constant
Frame rate : 10.000 fps
Color space : YUV
Chroma subsampling : 4:2:0
Bit depth : 8 bits
Scan type : Progressive
Bits/(Pixel*Frame) : 0.058
Stream size : 834 KiB (76%)
Language : English
Encoded date : UTC 2009-09-14 20:27:37
Tagged date : UTC 2009-09-14 20:27:40
Color primaries : BT.709-5, BT.1361, IEC 61966-2-4, SMPTE RP177
Transfer characteristics : BT.709-5, BT.1361
Matrix coefficients : BT.709-5, BT.1361, IEC 61966-2-4 709, SMPTE RP177

Audio
ID : 2
Format : AAC
Format/Info : Advanced Audio Codec
Format profile : LC
Codec ID : 40
Duration : 22s 600ms
Source duration : 22s 616ms
Bit rate mode : Constant
Bit rate : 48.0 Kbps
Channel(s) : 1 channel
Channel positions : Front: C
Sampling rate : 44.1 KHz
Compression mode : Lossy
Stream size : 132 KiB (12%)
Source stream size : 132 KiB (12%)
Language : English
Encoded date : UTC 2009-09-14 20:27:37
Tagged date : UTC 2009-09-14 20:27:40

Giá: 30.000 vnd
(Mang theo USB để chép file)

Leave a Reply

Your email address will not be published. Required fields are marked *