Sidemount Diving (2012)

Sidemount Diving (2012)
DVDRip | English | MP4 | 720×480 | AVC 1720 Kbps 29.970 fps | AAC 93.6 Kbps 44.1 khz | 1h 2mn | 817 MB
Genre: Video Training, Sports, Diving
Dive pros Jill Heinerth and Jeff Loflin lead you through the fundamentals of sidemount diving. Equipment selection, gear setup, techniques and skills are covered in this comprehensive video guide. From beginner to professional – recreational, cave, or wreck diver, you will find useful tools to help you improve your diving. Filmed in underwater locations around the world. Featuring leading sidemount divers including Nick Hollis, Brian Kakuk, Jakub Rahacek and others.
MediaInfo:

General
Complete name : Sidemount Diving (2012).mp4
Format : MPEG-4
Codec ID : M4V
File size : 817 MiB
Duration : 1h 2mn
Overall bit rate mode : Variable
Overall bit rate : 1 817 Kbps
Encoded date : UTC 2013-09-28 18:33:45
Tagged date : UTC 2013-09-28 18:33:45
©TIM : 00:00:00:00
©TSC : 30000
©TSZ : 1001

Video
ID : 1
Format : AVC
Format/Info : Advanced Video Codec
Format profile : Main@L3.2
Format settings, CABAC : No
Format settings, ReFrames : 2 frames
Format settings, GOP : M=1, N=72
Codec ID : avc1
Codec ID/Info : Advanced Video Coding
Duration : 1h 2mn
Bit rate mode : Constant
Bit rate : 1 720 Kbps
Nominal bit rate : 2 000 Kbps
Width : 720 pixels
Height : 480 pixels
Display aspect ratio : 3:2
Frame rate mode : Constant
Frame rate : 29.970 fps
Standard : NTSC
Color space : YUV
Chroma subsampling : 4:2:0
Bit depth : 8 bits
Scan type : Progressive
Bits/(Pixel*Frame) : 0.166
Stream size : 773 MiB (95%)
Language : English
Encoded date : UTC 2013-09-28 18:33:45
Tagged date : UTC 2013-09-28 18:33:45

Audio
ID : 2
Format : AAC
Format/Info : Advanced Audio Codec
Format profile : LC
Codec ID : 40
Duration : 1h 2mn
Source duration : 1h 2mn
Bit rate mode : Variable
Bit rate : 93.6 Kbps
Maximum bit rate : 152 Kbps
Channel(s) : 2 channels
Channel positions : Front: L R
Sampling rate : 44.1 KHz
Compression mode : Lossy
Stream size : 42.1 MiB (5%)
Source stream size : 42.1 MiB (5%)
Language : English
Encoded date : UTC 2013-09-28 18:33:45
Tagged date : UTC 2013-09-28 18:33:45

Giá: 30.000 vnd
(Mang theo USB để chép file)

Leave a Reply

Your email address will not be published. Required fields are marked *