Spinervals Competition 120 – Recharge

Spinervals Competition 12.0 – Recharge
DVDRip | English | AVI/DIVX 29.970 fps 1201 Kbps | 640×360 | MP3 128 Kbps 48.0 khz | 43mn 57s | 422 MB
Genre: Sports
Keep your leg muscles supple and relaxed between your hard workout days. This lower intensity workout designed to promote technique development and faster recovery. "Recharge" is the perfect workout for your easy days.
MediaInfo:

General
Complete name : Spinervals 12.0 – Recharge.avi
Format : AVI
Format/Info : Audio Video Interleave
File size : 422 MiB
Duration : 43mn 57s
Overall bit rate : 1 342 Kbps
Writing application : Lavf51.12.1

Video
ID : 0
Format : MPEG-4 Visual
Format profile : Simple@L1
Format settings, BVOP : No
Format settings, QPel : No
Format settings, GMC : No warppoints
Format settings, Matrix : Default (H.263)
Codec ID : DX50
Codec ID/Hint : DivX 5
Duration : 43mn 57s
Bit rate : 1 201 Kbps
Width : 640 pixels
Height : 360 pixels
Display aspect ratio : 16:9
Frame rate : 29.970 fps
Color space : YUV
Chroma subsampling : 4:2:0
Bit depth : 8 bits
Scan type : Progressive
Compression mode : Lossy
Bits/(Pixel*Frame) : 0.174
Stream size : 378 MiB (89%)
Writing library : Lavc51.40.4

Audio
ID : 1
Format : MPEG Audio
Format version : Version 1
Format profile : Layer 3
Mode : Joint stereo
Mode extension : MS Stereo
Codec ID : 55
Codec ID/Hint : MP3
Duration : 43mn 57s
Bit rate mode : Constant
Bit rate : 128 Kbps
Channel(s) : 2 channels
Sampling rate : 48.0 KHz
Compression mode : Lossy
Stream size : 40.2 MiB (10%)
Alignment : Aligned on interleaves
Interleave, duration : 24 ms (0.72 video frame)

Giá: 30.000 vnd
(Mang theo USB để chép file)

Leave a Reply

Your email address will not be published. Required fields are marked *